1740833934

美女战争.Minyu.Jeonjaeng.2013.720p.HDRip.H264-KTH

 

 

◎片  名 Beauty Wars | Minyu.Jeonjaeng

◎译  名    美女战争

◎时        间    2013/12/19

◎国  家 韩国

◎影片格式 x264+AAC

◎文件大小 1.83 GB

◎片  长 78 min

◎截        图    

 

 

 

 

 

 

 

  General

    Complete name : Minyu.Jeonjaeng.2013.720p.HDRip.H264-KTH.mp4

    Format : MPEG-4

    Format profile : Base Media / Version 2

    Codec ID : mp42

    File size : 1.83 GiB

    Duration : 1h 18mn

    Overall bit rate mode : Variable

    Overall bit rate : 3 332 Kbps

    Encoded date : UTC 2013-12-13 09:03:29

    Tagged date : UTC 2013-12-13 09:03:29

  Video #201

    ID : 201

    Format : AVC

    Format/Info : Advanced Video Codec

    Format profile : High@L4.1

    Format settings, CABAC : Yes

    Format settings, ReFrames : 2 frames

    Format settings, GOP : M=3, N=15

    Codec ID : avc1

    Codec ID/Info : Advanced Video Coding

    Duration : 1h 18mn

    Bit rate : 3 000 Kbps

    Width : 1 280 pixels

    Height : 720 pixels

    Display aspect ratio : 16:9

    Frame rate mode : Constant

    Frame rate : 29.970 fps

    Color space : YUV

    Chroma subsampling : 4:2:0

    Bit depth : 8 bits

    Scan type : Progressive

    Bits/(Pixel*Frame) : 0.109

    Stream size : 1.69 GiB (92%)

    Writing library : x264 core 120

    Encoding settings : cabac=1 / ref=2 / deblock=1:0:0 / analyse=0x3:0x113 / me=hex / subme=6 / psy=1 / psy_rd=1.0:0.0 / mixed_ref=1 / me_range=16 / chroma_me=1 / trellis=0 / 8x8dct=1 / cqm=0 / deadzone=21,11 / fast_pskip=0 / chroma_qp_offset=-2 / threads=8 / sliced_threads=0 / nr=0 / decimate=1 / mbaff=0 / constrained_intra=0 / bframes=2 / b_pyramid=0 / b_adapt=0 / b_bias=0 / direct=3 / wpredb=0 / wpredp=2 / keyint=15 / keyint_min=8 / scenecut=0 / intra_refresh=0 / rc_lookahead=15 / rc=abr / mbtree=1 / bitrate=3000 / ratetol=1.0 / qcomp=0.60 / qpmin=0 / qpmax=10 / qpstep=4 / ip_ratio=1.41 / aq=1:1.00

    Tagged date : UTC 2013-12-13 09:05:28

  Audio #101

    ID : 101

    Format : AAC

    Format/Info : Advanced Audio Codec

    Format profile : LC

    Codec ID : 40

    Duration : 1h 18mn

    Bit rate mode : Variable

    Bit rate : 128 Kbps

    Channel count : 2 channels

    Channel positions : Front: L R

    Sampling rate : 48.0 KHz

    Compression mode : Lossy

    Stream size : 72.2 MiB (4%)

    Tagged date : UTC 2013-12-13 09:05:28


BT+网盘:http://pan.baidu.com/s/1eQmRZ0m  密码: fjbm

magnet:?xt=urn:btih:7fd7209e3e650c0450eae7ec3ec02972f2099fe6&xl=1970227126

为什么要加密码?应为无法通过度娘的审核

来源:shouone